#TITLE:Lights, Camera. Action!;
#SUBTITLE:- Getsumen To Heiki Mina Opening;
#ARTIST:HALCALI;
#TITLETRANSLIT:;
#SUBTITLETRANSLIT:;
#ARTISTTRANSLIT:;
#CREDIT:Jubo;
#BANNER:Getsumen To Heiki Mina OP-bn.avi;
#BACKGROUND:Getsumen To Heiki Mina OP-bg1.jpg;
#LYRICSPATH:Getsumen To Heiki Mina OP.lrc;
#CDTITLE:Jubo.png;
#MUSIC:Getsumen To Heiki Mina OP.mp3;
#OFFSET:0.523;
#SAMPLESTART:23.420;
#SAMPLELENGTH:29.800;
#SELECTABLE:YES;
#BPMS:0.000=129.000;
#STOPS:;
#BGCHANGES:1.125=Getsumen To Heiki Mina OP-Video.avi=1.000=1=0=0,
173.000=Getsumen To Heiki Mina OP-bg2.jpg=1.000=1=0=0,
99999=-nosongbg-=1.000=0=0=0 // don't automatically add -songbackground-
;
// cache tags:
#FIRSTBEAT:3.500;
#LASTBEAT:173.042;
#SONGFILENAME:songs/Otaku's Dream 3rd Anime Mix/[Jubo] Light, Camera, Action! - Getsumen To Heiki Mina OP/Getsumen To Heiki Mina OP.sm;
#HASMUSIC:1;
#HASBANNER:1;
#MUSICLENGTH:81.533;
// end cache tags

//---------------dance-single - ----------------
#NOTES:
     dance-single:
     :
     Hard:
     8:
     0.522,0.530,0.392,0.098,0.098,258.000,32.000,8.000,0.000,0.000:
0000
0000
0000
0000
0000
0000
0000
0001
,
1000
0001
1000
0010
0100
0010
0000
0010
,
1000
0100
0000
0000
0100
1000
0000
1000
,
0001
0000
0100
0000
0010
2000
0000
0000
,
0000
0000
3001
0000
1001
0000
0000
0010
,
1000
0010
1000
0100
0010
0001
0010
0000
,
0010
0001
0000
1000
0010
0100
0001
0000
,
0100
0010
0100
0010
0100
0001
0100
0010
,
0100
0001
0100
0010
0000
0110
0000
0100
,
0010
0100
0010
1000
0010
0100
0010
1000
,
0010
0100
0000
0001
1000
0001
0010
0100
,
1000
0000
0010
0100
0010
0100
0010
1000
,
0010
0100
0010
1000
0100
0010
0000
0100
,
0010
0100
0010
0100
0010
0000
1000
0000
0001
0000
0010
0000
0100
0000
1000
0000
,
0001
0000
1001
0000
1000
0001
0000
0100
,
0010
0100
0000
0010
0100
0010
1000
0000
,
0001
0000
1000
0000
0001
0000
1000
0000
0010
0000
0100
0000
0000
0000
0010
1000
,
0010
1000
0010
0100
0010
0000
1000
0001
,
1000
0000
1001
0000
0001
1000
0000
0000
,
0022
0000
0033
0000
0000
0000
0001
0010
0001
0000
1000
0001
0000
1000
0001
0000
,
1000
0001
0001
0000
1001
0000
0000
0000
0100
0010
0100
0000
0000
0000
0110
0000
,
1001
0000
1000
0100
0010
0001
0100
0010
,
1000
0100
0010
0001
1000
0000
1001
0000
,
0110
0000
0010
1000
0001
0100
0010
1000
,
0100
0010
0001
0100
0010
0000
0110
0000
,
1001
0000
0010
0100
0010
0000
0000
1000
,
0010
0100
0001
0000
0101
0000
0100
0001
,
0010
0100
1000
0010
0100
0001
0010
0100
,
1000
0000
0100
0000
0010
0000
0001
0000
0010
0000
0001
0000
0010
0001
0010
0001
,
0010
0001
0010
0001
0010
0000
0001
0000
1000
0000
0100
0000
0000
0000
1000
0000
,
0001
0100
0001
0000
0101
0000
1001
0000
,
0110
0000
0010
1000
0001
0100
0000
0001
,
1000
0010
1000
0000
1010
0000
1001
0000
,
0110
0000
1010
0000
0011
0000
0000
1000
,
0100
0010
0001
0000
0011
0000
1000
0100
,
0010
0002
0000
0000
1003
0001
0000
0000
,
0100
1010
0101
1100
,
0110
0000
1001
0000
0000
0010
0001
0000
,
0000
0000
1000
0000
0100
0000
0000
0000
1000
0000
0001
1000
0000
0000
1001
0000
,
0000
0000
0220
0000
0330
0000
0000
0000
0000
0000
1000
0001
0000
1000
0001
0000
,
1000
0000
0001
0000
0010
0000
0000
0000
0100
0010
0100
0000
0000
0000
0110
0000
,
1001
0000
0100
1000
0010
0100
0202
0000
,
0000
0000
0000
0000
,
0000
0303
0000
0000
;

//---------------dance-single - Step by Jubo----------------
#NOTES:
     dance-single:
     Step by Jubo:
     Challenge:
     10:
     1.000,1.000,1.000,1.000,0.546,394.000,181.000,122.000,0.000,0.000:
0000
0000
0000
0000
0000
0000
0000
0000
0000
0000
0000
0000
0000
0000
0000
0000
0000
0000
0000
0000
0000
0000
0000
0000
0000
0000
0000
0000
0022
0033
0000
0000
,
2200
3300
0000
0000
0022
0033
0000
0000
2200
3300
0000
0000
0010
0000
0000
0000
0110
0000
0000
0000
0100
0000
0000
0000
0101
0000
0000
0000
0001
0000
0000
0000
,
0011
0010
0110
0100
1100
1000
1001
0001
,
0101
0100
0110
0010
1010
1000
1100
0100
,
0110
0000
0010
0000
0022
0000
0033
0000
2002
0000
3003
0000
1100
0011
1100
0011
,
1100
0000
0011
0000
1100
0000
0011
0000
1001
0000
0000
0000
1100
0000
0000
0000
1010
0000
0000
0000
0011
0000
0000
0000
0220
0330
0000
0000
0000
0000
0000
0000
,
2100
0000
0000
0000
3001
0000
0000
0000
0010
0000
0000
0000
1100
0000
0000
0000
1010
0000
0000
0000
0110
0000
0000
0000
0022
0033
0000
0000
0000
0000
0000
0000
,
1100
0000
0000
0000
0010
0000
0000
0000
0100
0000
0000
0000
1010
0000
0000
0000
0110
0000
0000
0000
1100
0000
0000
0000
0202
0303
0000
0000
0010
0000
0000
0000
,
1010
0000
0000
0000
1000
0000
0000
0000
0010
0000
0000
0000
1010
0000
0000
0000
0101
0000
0000
0000
0110
0000
0000
0000
2200
3300
0000
0000
0101
0000
0000
0000
,
0101
0000
0000
0000
0101
0000
0000
0000
0110
0000
0000
0000
1100
0000
0000
0000
0110
0000
0000
0000
0011
0000
0000
0000
2002
3003
0000
0000
1000
0000
0000
0000
,
1100
0000
0000
0000
0100
0000
0000
0000
0010
0000
0000
0000
0011
0000
0000
0000
0110
0000
0000
0000
1100
0000
0000
0000
2002
3003
0000
0000
1000
0000
0000
0000
,
1001
0000
0011
1100
0011
1100
0010
0001
,
0010
0000
0000
0000
0100
0000
0000
0000
0010
0000
0000
0000
0101
0000
0000
0000
1001
0000
0000
0000
0011
0000
1100
0000
0022
0033
1100
0000
0011
0000
1100
0000
,
0011
0000
1100
0000
0011
0000
1100
0000
0022
0033
0000
0000
1000
0000
0100
0000
1000
0000
0010
0000
0100
0000
0001
0000
0100
0000
0001
0000
0100
0000
0010
0000
,
1000
0100
1000
0010
0100
0001
0100
0001
0010
0100
1000
0100
0010
0001
0100
0010
,
0100
0010
0100
0001
1000
0001
1000
0010
0100
0010
0001
0010
0100
0010
0100
1000
,
0010
0100
0010
0100
1000
0010
0100
0001
0010
0100
1000
0000
0011
1100
0011
0000
,
1001
0000
0000
0000
1100
0000
0011
0000
2200
3300
0000
0000
1001
0000
0000
0000
0220
0000
0330
0000
0101
0000
0000
0000
2200
3300
0000
0000
0101
0000
0000
0000
,
0022
0000
0033
0000
0000
0000
0000
0000
1010
0000
0000
0000
0110
0000
0000
0000
1001
0000
0000
0000
1010
0000
0000
0000
0022
0033
0000
0000
1010
0000
0000
0000
,
0220
0000
0330
0000
0000
0000
0001
0010
0001
0010
0100
0010
1000
0010
0100
1000
,
0100
0000
0010
0000
0001
0000
0010
0000
1100
0000
0000
0000
0000
0000
0000
0000
0100
0000
0010
0000
0100
0000
0000
0000
1100
0000
0011
0000
2200
3300
0011
0000
,
2200
3300
0011
0000
1100
0000
0011
0000
1100
0000
0000
0000
0100
0000
0000
0000
0101
0000
0000
0000
0001
0000
0000
0000
0100
0000
0000
0000
0010
0000
0000
0000
,
1010
0100
0010
0001
0022
0033
2020
3030
,
2200
3300
0010
1000
1001
0100
0010
1000
,
0110
0010
0001
0100
2200
3300
0202
0303
,
0022
0000
0000
0000
0033
0000
1100
0000
0011
0000
0000
0000
0200
0000
0000
0000
0320
0000
0000
0000
2030
0000
0000
0000
0002
3003
0000
0000
0010
0000
0000
0000
,
1000
0000
0000
0000
0001
0000
0000
0000
0100
0000
0000
0000
0020
0000
0000
0000
0230
0000
0000
0000
0302
0000
0000
0000
2003
3000
0000
0000
0001
0000
0000
0000
,
0010
0000
0000
0000
0100
0000
0000
0000
1000
0000
0000
0000
0020
0000
0000
0000
0230
0000
0000
0000
0302
0000
0000
0000
0020
0033
0000
0000
1000
0000
0000
0000
,
0011
0000
1000
0000
0100
0000
1010
0000
0001
0000
1010
0000
0011
1100
0011
1100
,
0011
1100
0011
1100
0011
1000
0001
0010
0100
0010
0100
0010
0100
1000
0100
0010
,
0100
0010
0001
0010
0001
0010
0100
1000
0202
0000
0000
0303
0022
0000
0033
0000
,
2020
0000
3030
0000
1000
0100
0010
0100
0010
0001
0010
0001
0010
0100
0010
0100
,
1000
0100
0010
1000
0010
0100
0001
0100
0010
1000
0010
0100
0011
1100
0011
0000
,
2002
3003
0000
0000
0011
0000
1100
0000
0022
0000
0000
0033
0002
0000
0000
0000
0203
0000
0000
0000
0320
0000
0000
0000
2000
3030
0000
0000
1000
0000
0000
0000
,
0100
0000
0000
0000
0010
0000
0000
0000
0001
0000
0000
0000
2000
0000
0000
0000
3020
0000
0000
0000
0230
0000
0000
0000
0002
0303
0000
0000
0010
0000
0000
0000
,
0011
0000
0000
0000
0020
0000
0000
0000
1000
0000
0000
0000
1000
0000
0030
0000
1100
0000
0000
0000
0100
0000
0000
0000
0202
0303
0000
0000
0000
0000
0000
0000
,
0022
0033
0000
0000
0000
0000
0000
0000
2020
3030
0000
0000
0000
0000
0000
0000
0202
0303
0000
0000
0000
0000
0000
0000
2200
3300
0011
0000
1100
0000
0011
0000
,
2200
3300
0011
0000
1100
0000
0011
0000
2200
3300
0000
0000
1000
0000
0000
0000
1001
0000
0000
0000
0011
0000
0000
0000
0101
0000
0000
0000
0001
0000
0000
0000
,
1001
0000
1100
0000
1010
0000
0010
0000
0110
0000
0001
1000
0010
1000
0202
0303
,
1001
0000
0220
0330
0100
0000
0010
0000
1000
0000
1010
0011
0000
1100
0101
0000
,
2002
3003
0000
0000
0001
0000
0000
0000
1000
0000
0000
0000
0100
0000
0000
0000
0010
0000
0100
0000
0010
0000
0000
0000
1100
0000
0011
0000
2200
3300
0000
0000
,
2002
3003
0000
0000
0011
0000
1100
0000
0022
0033
0000
0000
0202
0303
0000
0000
0220
0330
0000
0000
2020
3030
0000
0000
2200
0000
0000
0000
0000
0000
0000
0000
,
0000
0000
0000
0000
,
0000
3300
0000
0000
;

//---------------dance-single - Step by Jubo----------------
#NOTES:
     dance-single:
     Step by Jubo:
     Medium:
     5:
     0.349,0.371,0.209,0.061,0.000,177.000,17.000,5.000,0.000,0.000:
0000
0000
0000
0000
,
0000
1000
0010
0100
,
0001
1000
0001
1000
,
0001
0010
0100
1000
,
1000
0100
0010
0001
,
1000
0001
1000
0000
0010
0000
0100
0000
,
0001
0010
0100
1000
,
0001
1000
0001
0000
0010
0000
0100
0000
,
1000
0000
0010
0000
0100
0000
0001
0100
,
0001
0100
0001
0000
0100
0000
0010
0000
,
0100
0010
1000
1010
,
0110
0000
0100
0010
0100
0010
0100
0010
,
0100
0010
0100
0010
0100
0010
0000
0000
,
1000
0100
0010
0001
,
0100
0010
1000
0100
,
0010
0001
0100
0001
,
0010
0000
0100
0000
1000
0000
0010
1000
,
0010
1000
0010
0000
1010
0000
0010
0000
,
0110
0000
0100
0000
0001
2000
0000
0000
,
3002
0003
0001
0010
,
0100
1000
0002
0003
,
1001
0001
0100
0010
,
1000
0100
0010
0001
,
0011
0001
0010
0100
,
1000
0100
0010
0001
,
0101
0100
0110
0000
,
1010
0010
0110
0100
,
0001
1000
0010
0100
,
0001
0000
1000
0000
0001
1000
0001
1000
,
0001
1000
0001
0000
0100
0000
0010
0000
,
1000
0100
0010
0001
,
0011
0001
0010
0100
,
1000
0100
0010
0001
,
0101
0100
0110
0000
,
1010
0010
0110
0100
,
0001
1000
0010
0100
,
0001
0000
1000
0000
1000
0001
1000
0001
,
1000
0001
1000
0000
0000
0001
0001
0000
,
0000
1000
1000
0000
0010
0000
0100
0000
,
0001
0000
0101
0000
0000
0000
0001
0100
,
0001
1000
0002
0003
,
1001
0000
1000
0001
1000
0001
2000
0000
,
0000
0000
0000
0000
,
0000
0000
0000
0000
0000
0000
0000
0000
0000
0000
0000
0000
0000
0000
0000
0000
0000
0000
0000
0000
0000
0000
0000
0000
0000
0000
0000
0000
0000
0000
0000
0000
0000
0000
0000
0000
0000
0000
0000
0000
0000
0000
0000
0000
0000
0000
0000
0000
0000
3000
0000
0000
0000
0000
0000
0000
0000
0000
0000
0000
0000
0000
0000
0000
0000
0000
0000
0000
0000
0000
0000
0000
0000
0000
0000
0000
0000
0000
0000
0000
0000
0000
0000
0000
0000
0000
0000
0000
0000
0000
0000
0000
0000
0000
0000
0000
0000
0000
0000
0000
0000
0000
0000
0000
0000
0000
0000
0000
0000
0000
0000
0000
0000
0000
0000
0000
0000
0000
0000
0000
0000
0000
0000
0000
0000
0000
0000
0000
0000
0000
0000
0000
0000
0000
0000
0000
0000
0000
0000
0000
0000
0000
0000
0000
0000
0000
0000
0000
0000
0000
0000
0000
0000
0000
0000
0000
0000
0000
0000
0000
0000
0000
0000
0000
0000
0000
0000
0000
0000
0000
0000
0000
0000
0000
0000
0000
0000
0000
0000
0000
0000
0000
0000
0000
0000
0000
0000
0000
0000
0000
0000
0000
;

//---------------dance-single - Step by Jubo----------------
#NOTES:
     dance-single:
     Step by Jubo:
     Easy:
     2:
     0.149,0.159,0.037,0.012,0.000,81.000,3.000,1.000,0.000,0.000:
0000
0000
0000
0000
,
0000
0000
1000
0000
,
0001
0000
1000
0000
,
0001
0000
1000
0000
,
0001
0000
1000
0000
,
0000
0110
0000
0000
,
1000
0000
0010
0000
,
0100
0000
0001
0000
,
0100
0000
0010
0000
,
1000
0000
0100
0000
,
0010
0000
0001
0000
,
0010
0000
0100
0000
,
1000
0000
1000
0000
,
0000
0001
0001
0001
,
0000
0100
0100
0100
,
0000
0010
0010
0010
,
0000
1000
1000
1000
,
0000
0010
0000
0100
,
0000
0010
0000
0100
,
0000
0000
0000
0000
,
0000
1001
0000
0000
,
1001
0000
0100
0000
,
0010
0000
1000
0000
,
0010
0000
0100
0000
,
0001
0000
0100
0000
,
0010
0000
1000
0000
,
0010
0000
0100
0000
,
0001
0000
1000
0000
,
0001
0000
0000
0000
,
0000
0000
0100
0000
,
0010
0000
1000
0000
,
0010
0000
0100
0000
,
0001
0000
0100
0000
,
0010
0000
1000
0000
,
0010
0000
0100
0000
,
0001
0000
1000
0000
,
0001
0000
1000
0000
,
0010
0000
0100
0000
,
0001
0000
1000
0000
,
0010
0000
0100
0000
,
0001
0000
1000
0000
,
0010
0100
0100
0200
,
0000
0000
0000
0000
,
0000
0000
0000
0000
0000
0000
0000
0000
0000
0000
0000
0000
0000
0000
0000
0000
0000
0000
0000
0000
0000
0000
0000
0000
0000
0000
0000
0000
0000
0000
0000
0000
0000
0000
0000
0000
0000
0000
0000
0000
0000
0000
0000
0000
0000
0000
0000
0000
0000
0000
0300
0000
0000
0000
0000
0000
0000
0000
0000
0000
0000
0000
0000
0000
0000
0000
0000
0000
0000
0000
0000
0000
0000
0000
0000
0000
0000
0000
0000
0000
0000
0000
0000
0000
0000
0000
0000
0000
0000
0000
0000
0000
0000
0000
0000
0000
0000
0000
0000
0000
0000
0000
0000
0000
0000
0000
0000
0000
0000
0000
0000
0000
0000
0000
0000
0000
0000
0000
0000
0000
0000
0000
0000
0000
0000
0000
0000
0000
0000
0000
0000
0000
0000
0000
0000
0000
0000
0000
0000
0000
0000
0000
0000
0000
0000
0000
0000
0000
0000
0000
0000
0000
0000
0000
0000
0000
0000
0000
0000
0000
0000
0000
0000
0000
0000
0000
0000
0000
0000
0000
0000
0000
0000
0000
0000
0000
0000
0000
0000
0000
0000
0000
0000
0000
0000
0000
0000
0000
0000
0000
0000
0000
;
